Kategorier
watch,free

Tenet 2020 HDRip Free Download Torrent

Tenet 2020 HDRip Free Download Torrent

Torrent Health

Download here

Tenet 2020 HDRip

Type: Action, Exciting, Science Stories
Director: Christopher Nolan
Actors: John David Washington, Robert Pattinson, Elizabeth Debicki, Kenneth Branagh, Dimple Kapadia
The Plot: Armed with a single word – Tenet – and fighting for the life of the entire world, Protagonist stumbles into a twilight world of international intelligence on emerging missions more than in real time.
Cover
MEDIA INFORMATION
Instrument = Matroska (avi)
Time = 02:29
File size = 2 GiB
– Video
Codec = AVC Description | V_MPEG4 / ISO / AVC
Resolution = 720×320
Show ON = | : 1
Data rate = 1,300 kb / s
Frame = CFR color space = YUV
Chroma production = 4: 2: 0
Encoder = x264 – base 142 r2479 dd79a61
– Sounds
Codec Description = AC-3 | A_AC3
Path = 6
Throughput = CBR 384 kb / s
Sample = kHz
Language = English
ACTS

Director: Christopher Nolan

Author: Christophe Nolan

Actors: John David Washington, Robert Pattinson, Elizabeth Debicki

Plot / Story:

With one word, Principle, and a fight for survival across the world, the main character travels an international evening of espionage on missions that take place in real time.

Remarks:

You finished printing, reset ON, reduce noise and noise, re-balance colors, brightness, contrast, faded website logo, full image, sample 3

Awesome

Full Name:

Format: AVI

Format / Description: audio video interacts

File size: Gio

Duration: 2 24 min

Small total: 1,684 KB / s

Quotes: Korean code from time to time. Venom 2018.1080p

Samples: (3)

Video

Username: 0

Format: MPEG-4 visual

Format format: advanced

Format settings, BVOP: 2

Structure parameters, QPel: No.

Structural Arrangements, GMC: No War Centers

Format parameters, matrix: basic ()

Codec ID: XVID

Codec ID / Tip: XviD

Duration: 2 24 min

Minimum data rate: 1,542 kb / s

Width: 720 pixels

Height: 256 pixels

Display rate:

Frame rate: (30000/1001) FPS

Color space: YUV

Chroma production: 4: 2: 0

Depth: 8 pieces

Analysis type: in progress

Pressing Method: Loss

Bits / (Pixel Frame *):

Stream size: GiB (92%)

Write library: XviD 64

Sound

Username: 1

Format: MPEG audio

Format version: Version 1

Structure format: level 3

Codec ID: 55

Codec ID / Tip: MP3

Duration: 2 24 min

Low level mode: sometimes

Minimum speed: 128 kb / s

Station (s): Route 2

Sampling rate: kHz

Pressing Method: Loss

Stream size: 132 MiB (8%)

Plan: Organized on the sheets

Interaction, duration: 24 ms (video image)

Snapshots:

Please sow as much as possible

Or At least 1: 1

Enjoy Peeps.

235bc

Tenet 2020 HDRip Free Download Torrent

Torrent Health

Download here

Tenet 2020 HDRip

Type: Action, Exciting, Science Stories
Director: Christopher Nolan
Actors: John David Washington, Robert Pattinson, Elizabeth Debicki, Kenneth Branagh, Dimple Kapadia
The Plot: Armed with a single word – Tenet – and fighting for the life of the entire world, Protagonist stumbles into a twilight world of international intelligence on emerging missions more than in real time.
Cover
MEDIA INFORMATION
Instrument = Matroska (avi)
Time = 02:29
File size = 2 GiB
– Video
Codec = AVC Description | V_MPEG4 / ISO / AVC
Resolution = 720×320
Show ON = | : 1
Data rate = 1,300 kb / s
Frame = CFR color space = YUV
Chroma production = 4: 2: 0
Encoder = x264 – base 142 r2479 dd79a61
– Sounds
Codec Description = AC-3 | A_AC3
Path = 6
Throughput = CBR 384 kb / s
Sample = kHz
Language = English
ACTS

Director: Christopher Nolan

Author: Christophe Nolan

Actors: John David Washington, Robert Pattinson, Elizabeth Debicki

Plot / Story:

With one word, Principle, and a fight for survival across the world, the main character travels an international evening of espionage on missions that take place in real time.

Remarks:

You finished printing, reset ON, reduce noise and noise, re-balance colors, brightness, contrast, faded website logo, full image, sample 3

Awesome

Full Name:

Format: AVI

Format / Description: audio video interacts

File size: Gio

Duration: 2 24 min

Small total: 1,684 KB / s

Quotes: Korean code from time to time. Venom 2018.1080p

Samples: (3)

Video

Username: 0

Format: MPEG-4 visual

Format format: advanced

Format settings, BVOP: 2

Structure parameters, QPel: No.

Structural Arrangements, GMC: No War Centers

Format parameters, matrix: basic ()

Codec ID: XVID

Codec ID / Tip: XviD

Duration: 2 24 min

Minimum data rate: 1,542 kb / s

Width: 720 pixels

Height: 256 pixels

Display rate:

Frame rate: (30000/1001) FPS

Color space: YUV

Chroma production: 4: 2: 0

Depth: 8 pieces

Analysis type: in progress

Pressing Method: Loss

Bits / (Pixel Frame *):

Stream size: GiB (92%)

Write library: XviD 64

Sound

Username: 1

Format: MPEG audio

Format version: Version 1

Structure format: level 3

Codec ID: 55

Codec ID / Tip: MP3

Duration: 2 24 min

Low level mode: sometimes

Minimum speed: 128 kb / s

Station (s): Route 2

Sampling rate: kHz

Pressing Method: Loss

Stream size: 132 MiB (8%)

Plan: Organized on the sheets

Interaction, duration: 24 ms (video image)

Snapshots:

Please sow as much as possible

Or At least 1: 1

Enjoy Peeps.

Lämna ett svar

Din e-postadress kommer inte publiceras. Obligatoriska fält är märkta *